| 联系站长
如果本站无法访问,请尝试登陆:www.cdsoso.me
高级
搜索
当前位置:主页 > 音乐 > 华语音乐

李雅微 -《我们的纪念》[APE]

发布时间:2011/06/10 16:16 | 更新时间:2011/11/24 13:29

豆瓣评分0
CdSoSo数字图书馆
浏览:2718
名称:李雅微 -《我们的纪念》[APE]
分类: -
地区
语言
发行年代:2011年
发布时间:2011年06月10日
更新时间:2011年11月24日
CdSoSo微信公众号

打赏

取消

感谢您的支持,我会继续努力的!

扫码支持
扫码打赏,你说多少就多少

打开支付宝扫一扫,即可进行扫码打赏哦

介绍

简介: 简介:

发行公司:上海步升大风音乐文化传播有限公司
出版公司:广东音像出版公司
ISRC编码:CN-F18-08-488-00/A.J6
资源出处:网络
专辑介绍:
一、基本信息:
台湾偶像剧《放羊的星星》风靡一时,在多个卫视台热播,剧中的插曲《我们的纪念》也因此红遍大江南北,这首歌曲的创作者和演唱者便是李雅微。随着剧集的热播,她的名字很快在网络中成为歌手搜索的热门词汇。
本专辑特别收录了《放羊的星星》主题曲《极速爱情》、指定插曲《我们的纪念》及《恶女阿楚》插曲《不下雨的星期一》,及由爱情小说改编偶像剧《爱情两好三坏》插曲《终点》,让你一次重温三部偶像剧中的动人情歌,以及尽露才情的词曲包办合唱情歌《My Queen》,新摇滚女生带来的不一定吵闹的摇滚,不一定安静的情歌,等你听过,你就会明白。(以上出自专辑封底)
梦想如果嫌远,那不如自己创造一个;音乐梦想正在实现。

我常常会想像自己见到自己偶像时候的情景,我一定会很不自然,不像我在参加很多比赛的时候那种握到麦克风,自信到爆炸的样子;我一定变得很不李雅微,我觉得。

毕竟是在萤光幕前才看的到呀,这些我一直很崇拜的唱歌的人,我觉得那是很伟大的存在,所以当我自己清楚知道我也即将站上那个大舞台的时候,我希望可以出现以我自己为荣的骄傲,不管在未来的任何时间点,我相信有朝一日。

我必须对我所要表现给大家看的一切,全部包括我唱歌的力气,歌词的涵义,我要表演的动作,都很在意,这就是我对自己跟梦想的,最大敬意。

唱流行音乐没有什么不对,因为有了这些过去才会产生更多的音乐人创造出经典的历史;不用尊敬的心态去看待这些写歌跟唱歌的前辈是不行的,因为属于他们的历史还在继续缔造,那是我一生都无法达到的,却因为有他们,让我的音乐之梦,比他们更大更漂亮。

我是为了摇滚为了自己的梦想唱歌的,Dream Fighter李雅微。筑梦星光热─歌唱比赛出身的歌手中广流行之星世界华人星秀选拔第一届流行之星歌唱比赛,由中广与民生报共同主办,活动于当年三月展开后,获得广大而热烈的回响,从初赛报名者多达四千三百多卷卡带。之后与加拿大中文电台等国外华人电台合作,有来自全球的华人报名参加,因中广组织营运的问题,最后一次举办是2004年的第10届。曾参与歌手:张韶涵(1999年)、潘玮柏(1999年)、罗美玲(2001年)、李雅微(2004年)…等。如果有一天有人会说:啊这是李雅微的声音,我真的真的觉得这就够了!

笑就要很大声的分了岔,哭就要很痛快的流眼泪;不然我一定会得内伤,然后会不开心。

因为那不是我呀,你说人怎么可以不当自己,当自己很重要,即使我得了2004年中广流行之星歌唱比赛的冠军,当我知道要发片的时候我还是对自己最有把握的唱歌有了迟疑;可能很多事情要大量地考虑到,但最重要的是:我还可不可以当「李雅微」这一件事情。

原本我就不是那种有野心而开始去作什么事的人,有时候也会活得很辛苦,有时候也很容易跟大家打打闹闹;但慢慢地发现大家都很认真地看待起你以及你要的音乐的每个细节的时候,我才知道一个梦想的实践是有这样多复杂但美丽的过程。

于是我也很拼命地跟着大家挤出一心一德贯彻始终的努力,去实现自己不再靠幻想的音乐梦想,真的,这真的是一件太帅气的事情了!

因为我,所以我想让大家知道:作梦的人一定要坚持下去,有一天梦想就会按照你想的样子出现在你面前。

再怎么思考未来的去向,其实都难免无法如愿以偿。

永远都只思考现在该如何做,不去作就没有开始;要后悔要靠咬,都是很久很久以后的事了。

我会为了音乐全力以赴,我是Dream Figher李雅微。
——摘自百度百科
二、歌手介绍:
1. 代表作
《我们的纪念》、《Paradise》、《极速爱情》(以上三首收录于放羊的星星电视原声带)、《休止符》、《漩涡》、《失去你的手》等
2.从艺历程

李雅微在台湾被喻为“新摇滚女生”,也是一名创作型的实力唱将,她同样是在台湾选秀节目中脱颖而出的新人。从19岁就获得中广流行之星冠军的李雅微,获得了人生中第一张进入了演艺圈的门票,参加每一场比赛都获得了很好的成绩,自2006年起就陆续在网络上发表了数十首单曲,却没想到在2007年中因母亲罹癌,迫使她放弃最喜爱的音乐返回台中一人扛起全家的生计。

李雅微在十九岁那年与朋友组团报名了中广流行之星的比赛,一路过关斩将,获得了冠军,当时超级偶像第一届的冠军张芸京也是她的手下败将。因为家境一直不太好,所以她把第一名的奖品“汽车”直接卖掉换现金,原封不动的交给妈妈,然后换来她继续往她喜爱的音乐发展,不但发行了数十首的数字单曲,更演唱了偶像剧“放羊的星星”片头曲:“极速爱情”及自己创作的“我们的纪念”,更与自己心仪已久的偶像林志颖合拍音乐录像带。当时她以为她好运当头,一切的不顺遂都将过去,却没想到在此时接到妈妈的来电,得知妈妈罹癌并且已是末期,一方面需要有人照顾,二方面需要筹措医药费,在她痛哭了一个晚上后,她决定放弃继续唱歌的梦想,回到台中照顾妈妈。

在台中她找了一份行政工作,就近照顾妈妈,但对于音乐却是念念不忘,今年的四月李雅微利用周末上台北参加超级偶像的踢馆大赛,因为中广流行之星让她与张芸京变成了好朋友,从张芸京参加超级偶像后就几乎每周在网上询问李雅微的表演经验,再次站上舞台,李雅微发现她最钟爱的还是唱歌及表演,为此,她想再次为自己争取站上舞台的机会,在其唱片公司的帮助下,李雅微即将发行首张个人专辑“我们的纪念”。

这是她的第一张专辑,在网友歌迷们的热烈响应推动及公司的帮助下,这次她下定决心想给自己最后一次机会,让她完成她这五年来的心愿,她知道现实环境的残酷,但她也想为支持自己的歌迷朋友们一个交代,这是她的第一张专辑,也可能是最后一张专辑,不过李雅微总希望在大家还喜欢听她唱歌时留下这五年她在音乐上努力所做出的成绩。
EAC抓轨日志:
引用Exact Audio Copy V1.0 beta 1 from 15. November 2010
EAC extraction logfile from 10. June 2011, 15:04
李雅微 / 我们的纪念
Used drive : HL-DT-STDVDRAM GSA-T50N Adapter: 0 ID: 1
Read mode : Secure
Utilize accurate stream : Yes
Defeat audio cache : Yes
Make use of C2 pointers : No
Read offset correction : 667
Overread into Lead-In and Lead-Out : No
Fill up missing offset samples with silence : Yes
Delete leading and trailing silent blocks : No
Null samples used in CRC calculations : Yes
Used interface : Native Win32 interface for Win NT 2000
Used output format : Monkey s Audio Lossless Encoder v3.99 DLL
Sample format : Normal Lossless Compression
TOC of the extracted CD
Track | Start | Length | Start sector | End sector
---------------------------------------------------------
1 | 0:00.00 | 4:25.26 | 0 | 19900
2 | 4:25.26 | 3:23.67 | 19901 | 35192
3 | 7:49.18 | 4:01.63 | 35193 | 53330
4 | 11:51.06 | 3:16.50 | 53331 | 68080
5 | 15:07.56 | 3:32.08 | 68081 | 83988
6 | 18:39.64 | 2:44.40 | 83989 | 96328
7 | 21:24.29 | 3:11.72 | 96329 | 110725
8 | 24:36.26 | 5:34.62 | 110726 | 135837
9 | 30:11.13 | 3:54.65 | 135838 | 153452
10 | 34:06.03 | 4:17.23 | 153453 | 172750
11 | 38:23.26 | 4:41.19 | 172751 | 193844
12 | 43:04.45 | 1:53.21 | 193845 | 202340
Range status and errors
Selected range
Filename F:我们的纪念李雅微 - 我们的纪念.ape
Peak level 100.0 %
Extraction speed 0.1 X
Range quality 100.0 %
Test CRC 5A855C88
Copy CRC 5A855C88
Copy OK
No errors occurred
End of status report
说明:
由于本人设备有限,手头上只带有老爷机5230一部,专辑图片清晰度虽然实在无法容忍,但敬请别喷。放假再补上清晰版的专辑图片。校园网,开源时间:00:00-12:00,14:00-20:00。
免责声明:
资源来自网络,为发布对文件名及格式作了改变。本资源只作测试用,请你于下载后24小时内删除,如果你喜欢该资源请你向发行销售商购买正版,本人不负任何直接或者是间接的责任,如果本资源危害了你的利益联系管理员删除该链接。



劳维明.vc

精华资源: 189

全部资源: 193

加关注

同类资源  ·  本周排行榜